RSS |
网站首页 > 美女视频下载 > 唯美精品 > 正文

(Banbanko).mp4

chenchen 2021-06-30 唯美精品 0 ℃ 0 评论

[视频名称] : (Banbanko).mp4
[出境模特] : 半半子
[视频尺寸] : 1920x1080
[视频大小] : 1mp4/152.2M
[视频时长] : 00:00:18
[视频编码] :
Stream #0:0(und): Video: h264 (Main) (avc1 / 0x31637661), yuv420p(tv, bt709), 1920x1080, 69887 kb/s, SAR 1:1 DAR 16:9, 50 fps, 50 tbr, 12800 tbn, 100 tbc (default)
Stream #0:1(und): Audio: aac (LC) (mp4a / 0x6134706D), 48000 Hz, stereo, fltp, 142 kb/s (default)
[下载方式] : 百度网盘


付费资源

您需要注册登录后通过购买才能查看!

推荐您阅读更多有关于的文章

请保存好本站永久地址以免走失:meisione.net
网站分类
标签列表